MaxRNB

 找回密码
 注册帐号

QQ登录

查看: 7702|回复: 183

[现场Live] Eminem - Relapse Show live in Detroit - 1.06G[115]

Rank: 18Rank: 18Rank: 18Rank: 18Rank: 18Rank: 18

帖子
5351
推广
604
资源
210
人气
34800
在线时间
2326 小时
注册时间
2009-12-8

荣誉会员

发表于 2011-5-4 13:37:58 |显示全部楼层
本帖最后由 lu8799533 于 2011-5-4 13:38 编辑



F:\eminem\演唱会\Eminem - Relapse Show live in Detroit\【阿姆论天下】Eminem - Live In Detroit - Relapse Show (2009) .wmv
   General
      Complete name : F:\eminem\演唱会\Eminem - Relapse Show live in Detroit\【阿姆论天下】Eminem - Live In Detroit - Relapse Show (2009) .wmv
      Format : Windows Media
      File size : 1.06 GiB
      Duration : 29mn 9s
      Overall bit rate mode : Constant
      Overall bit rate : 5 230 Kbps
      Maximum Overall bit rate : 6 241 Kbps
      Encoded date : UTC 2009-05-25 17:50:36.560
      Writing application :  6.0.6000.16386 / Windows Movie Maker
      Application : Windows Movie Maker 6.0.6000.16386
   Video #2
      ID : 2
      Format : VC-1
      Format profile : MP@HL
      Codec ID : WMV3
      Codec ID/Info : Windows Media Video 9
      Codec ID/Hint : WMV3
      Description of the codec : Windows Media Video 9 - Professional
      Duration : 29mn 9s
      Bit rate mode : Constant
      Bit rate : 6 000 Kbps
      Width : 1 280 pixels
      Height : 720 pixels
      Display aspect ratio : 16:9
      Frame rate : 25.000 fps
      Resolution : 24 bits
      Scan type : Progressive
      Bits/(Pixel*Frame) : 0.260
      Stream size : 1.22 GiB
      Language : English (US)
   Audio #1
      ID : 1
      Format : WMA2
      Format profile : L3
      Codec ID : 161
      Codec ID/Info : Windows Media Audio 2
      Description of the codec : Windows Media Audio 9.2 - 192 kbps, 48 kHz, stereo (A/V) 1-pass CBR
      Duration : 29mn 9s
      Bit rate mode : Constant
      Bit rate : 192 Kbps
      Channel(s) : 2 channels
      Sampling rate : 48.0 KHz
      Resolution : 16 bits
      Stream size : 40.0 MiB (4%)
      Language : English (US)

游客,如果您要查看本帖隐藏内容请回复
7

查看全部评分

Rank: 29Rank: 29Rank: 29Rank: 29Rank: 29

帖子
6034
推广
464
资源
527
人气
2
在线时间
8240 小时
注册时间
2009-9-5
发表于 2011-5-4 13:43:15 |显示全部楼层
这个骚气~ 墙裂支持em~ 帅~

使用道具 举报

Rank: 16Rank: 16Rank: 16Rank: 16

帖子
977
推广
0
资源
10
人气
11
在线时间
586 小时
注册时间
2010-12-11
发表于 2011-5-4 13:59:04 |显示全部楼层
前排顶em~~

使用道具 举报

Rank: 30Rank: 30

帖子
16234
推广
1088
资源
420
人气
20934
在线时间
5798 小时
注册时间
2009-9-10

荣誉会员

发表于 2011-5-4 14:16:38 |显示全部楼层
720的 很爽

使用道具 举报

Rank: 10Rank: 10

帖子
351
推广
4
资源
0
人气
-9
在线时间
431 小时
注册时间
2009-1-5
发表于 2011-5-4 15:29:01 |显示全部楼层
  这个太爽了  赶紧收了

使用道具 举报

Rank: 14Rank: 14Rank: 14Rank: 14Rank: 14Rank: 14

帖子
1369
推广
29
资源
0
人气
614
在线时间
719 小时
注册时间
2010-4-5
发表于 2011-5-4 16:23:06 |显示全部楼层
阿姆论天下

使用道具 举报

Rank: 10Rank: 10

帖子
678
推广
3
资源
0
人气
0
在线时间
143 小时
注册时间
2011-4-26
发表于 2011-5-4 17:10:10 |显示全部楼层
很好听的

使用道具 举报

Rank: 30Rank: 30

帖子
4427
推广
1
资源
49
人气
342
在线时间
3609 小时
注册时间
2009-10-22
发表于 2011-5-4 20:42:25 |显示全部楼层
720的 很爽,我也来下了

使用道具 举报

Rank: 26Rank: 26

帖子
4773
推广
9
资源
2
人气
496
在线时间
3177 小时
注册时间
2008-6-6
发表于 2011-5-4 20:59:10 |显示全部楼层
love it. cant wait to see the concert..

使用道具 举报

Rank: 30Rank: 30

帖子
7688
推广
20
资源
0
人气
142
在线时间
6739 小时
注册时间
2008-7-16
发表于 2011-5-4 22:50:54 |显示全部楼层
这个绝对要支持的啊

使用道具 举报

您需要登录后才可以回帖 登录 | 注册帐号

回顶部