MaxRNB

 找回密码
 注册帐号

QQ登录

查看: 1077|回复: 22

[DVD/VOB] Fort Minor - Remember The Name - 235M [更新115]

Rank: 29Rank: 29Rank: 29Rank: 29Rank: 29

帖子
6034
推广
464
资源
527
人气
2
在线时间
8240 小时
注册时间
2009-9-5
发表于 2011-6-4 10:51:25 |显示全部楼层
本帖最后由 木偶 于 2011-9-16 23:05 编辑

这个黑边貌似没截好, 所以产生了画中画的效果..
凑活看看吧..

  1. C:\Users\木偶\Desktop\Fort Minor - Remember The Name.vob
  2.    General
  3.       Complete name : C:\Users\木偶\Desktop\Fort Minor - Remember The Name.vob
  4.       Format : MPEG-PS
  5.       File size : 235 MiB
  6.       Duration : 3mn 48s
  7.       Overall bit rate : 8 633 Kbps
  8.    Video #224
  9.       ID : 224 (0xE0)
  10.       Format : MPEG Video
  11.       Format version : Version 2
  12.       Format profile : Main@Main
  13.       Format settings, Matrix : Default
  14.       Duration : 3mn 48s
  15.       Bit rate mode : Variable
  16.       Bit rate : 6 754 Kbps
  17.       Width : 720 pixels
  18.       Height : 480 pixels
  19.       Display aspect ratio : 4:3
  20.       Frame rate : 29.970 fps
  21.       Standard : NTSC
  22.       Colorimetry : 4:2:0
  23.       Bits/(Pixel*Frame) : 0.652
  24.       Stream size : 184 MiB (78%)
  25.    Audio #160
  26.       ID : 160 (0xA0)
  27.       Format : PCM
  28.       Format settings, Endianness : Big
  29.       Format settings, Sign : Signed
  30.       Muxing mode : DVD-Video
  31.       Duration : 3mn 48s
  32.       Bit rate mode : Constant
  33.       Bit rate : 1 536 Kbps
  34.       Channel(s) : 2 channels
  35.       Channel positions : Front: L R
  36.       Sampling rate : 48.0 KHz
  37.       Resolution : 16 bits
  38.       Video delay : -50ms
  39.       Stream size : 41.9 MiB (18%)
复制代码
游客,如果您要查看本帖隐藏内容请回复

Rank: 30Rank: 30

帖子
8030
推广
34
资源
0
人气
1142
在线时间
8083 小时
注册时间
2009-4-2
发表于 2011-6-4 10:57:54 |显示全部楼层
纯支持了

使用道具 举报

Rank: 11Rank: 11Rank: 11

帖子
428
推广
0
资源
0
人气
0
在线时间
511 小时
注册时间
2011-6-3
发表于 2011-6-4 13:11:24 |显示全部楼层
看看是什么

使用道具 举报

Rank: 2Rank: 2

帖子
4
推广
0
资源
0
人气
0
在线时间
0 小时
注册时间
2011-6-4
发表于 2011-6-4 13:39:27 |显示全部楼层
看看先,拿下

使用道具 举报

Rank: 11Rank: 11Rank: 11

帖子
786
推广
1
资源
0
人气
9
在线时间
240 小时
注册时间
2011-5-20
发表于 2011-6-4 14:13:14 |显示全部楼层
这个必须要

使用道具 举报

Rank: 21Rank: 21Rank: 21Rank: 21Rank: 21

帖子
1094
推广
19
资源
0
人气
0
在线时间
1983 小时
注册时间
2008-8-5
发表于 2011-6-4 14:59:02 |显示全部楼层
看看跟以前下的一样不,谢谢楼主

使用道具 举报

Rank: 7Rank: 7Rank: 7

帖子
171
推广
0
资源
0
人气
-3
在线时间
98 小时
注册时间
2009-9-19
发表于 2011-6-4 15:29:13 |显示全部楼层
这歌太经典了。

使用道具 举报

Rank: 26Rank: 26

帖子
10516
推广
16
资源
0
人气
1275
在线时间
2707 小时
注册时间
2008-6-7
发表于 2011-6-4 21:37:46 |显示全部楼层
这歌好听

使用道具 举报

帖子
1188
推广
0
资源
0
人气
603
在线时间
201 小时
注册时间
2010-8-6
发表于 2011-6-6 13:53:45 |显示全部楼层
提示: 作者被禁止或删除 内容自动屏蔽

使用道具 举报

Rank: 8Rank: 8Rank: 8Rank: 8

帖子
562
推广
0
资源
0
人气
-25
在线时间
512 小时
注册时间
2008-12-14
发表于 2011-6-6 18:58:16 |显示全部楼层
支持支持

使用道具 举报

您需要登录后才可以回帖 登录 | 注册帐号

回顶部