MaxRNB

 找回密码
 注册帐号

QQ登录

查看: 3588|回复: 123

[高清HD] Lady Gaga - Marry The Night (VEVO) - 1080p - 520M [115链接已更新]

Rank: 16Rank: 16Rank: 16Rank: 16

帖子
942
推广
24
资源
140
人气
502
在线时间
715 小时
注册时间
2009-11-9
发表于 2011-12-3 00:05:41 |显示全部楼层


已更新为压缩文件
久等了~~


Video
ID                                       : 1
Format                                   : AVC
Format/Info                              : Advanced Video Codec
Format profile                           : High@L4.0
Format settings, CABAC                   : Yes
Format settings, ReFrames                : 1 frame
Codec ID                                 : avc1
Codec ID/Info                            : Advanced Video Coding
Duration                                 : 13mn 50s
Bit rate                                 : 5 103 Kbps
Maximum bit rate                         : 13.6 Mbps
Width                                    : 1 920 pixels
Height                                   : 1 080 pixels
Display aspect ratio                     : 16:9
Frame rate mode                          : Constant
Frame rate                               : 24.000 fps
Color space                              : YUV
Chroma subsampling                       : 4:2:0
Bit depth                                : 8 bits
Scan type                                : Progressive
Bits/(Pixel*Frame)                       : 0.103
Stream size                              : 505 MiB (97%)


Audio
ID                                       : 2
Format                                   : AAC
Format/Info                              : Advanced Audio Codec
Format profile                           : LC
Codec ID                                 : 40
Duration                                 : 13mn 50s
Bit rate mode                            : Variable
Bit rate                                 : 150 Kbps
Maximum bit rate                         : 189 Kbps
Channel(s)                               : 2 channels
Channel positions                        : Front: L R
Sampling rate                            : 44.1 KHz
Compression mode                         : Lossy
Stream size                              : 14.9 MiB (3%)


游客,如果您要查看本帖隐藏内容请回复
1

查看全部评分

Rank: 8Rank: 8Rank: 8Rank: 8

帖子
428
推广
0
资源
0
人气
50
在线时间
310 小时
注册时间
2010-1-13
发表于 2011-12-3 00:11:13 |显示全部楼层
不错啊 加油 gaga

使用道具 举报

Rank: 22Rank: 22Rank: 22Rank: 22Rank: 22Rank: 22

帖子
1791
推广
11
资源
138
人气
398
在线时间
2030 小时
注册时间
2011-2-7
发表于 2011-12-3 00:12:41 |显示全部楼层
GAGA加油,期待格莱美颁奖!!!

使用道具 举报

Rank: 22Rank: 22Rank: 22Rank: 22Rank: 22Rank: 22

帖子
2646
推广
54
资源
0
人气
25
在线时间
1117 小时
注册时间
2009-5-24
发表于 2011-12-3 00:18:25 |显示全部楼层
睡前收好货

使用道具 举报

Rank: 14Rank: 14Rank: 14Rank: 14Rank: 14Rank: 14

帖子
1197
推广
0
资源
0
人气
111
在线时间
281 小时
注册时间
2010-12-24
发表于 2011-12-3 00:20:19 |显示全部楼层
这个还是必须收的,谢谢!

使用道具 举报

Rank: 29Rank: 29Rank: 29Rank: 29Rank: 29

帖子
6033
推广
464
资源
527
人气
2
在线时间
8240 小时
注册时间
2009-9-5
发表于 2011-12-3 00:22:21 |显示全部楼层
赞 支持个 辛苦了

使用道具 举报

Rank: 8Rank: 8Rank: 8Rank: 8

帖子
296
推广
0
资源
0
人气
0
在线时间
79 小时
注册时间
2011-10-3
发表于 2011-12-3 00:26:44 |显示全部楼层
谢谢分享

使用道具 举报

Rank: 18Rank: 18Rank: 18Rank: 18Rank: 18Rank: 18

帖子
1479
推广
0
资源
0
人气
1
在线时间
559 小时
注册时间
2011-9-26
发表于 2011-12-3 00:54:55 |显示全部楼层
thanks a lot im happy

使用道具 举报

Rank: 30Rank: 30

帖子
4889
推广
11
资源
0
人气
88
在线时间
7890 小时
注册时间
2008-6-26
发表于 2011-12-3 02:08:57 |显示全部楼层
收下了,谢谢分享啊

使用道具 举报

Rank: 13Rank: 13Rank: 13Rank: 13Rank: 13

帖子
726
推广
899
资源
0
人气
152
在线时间
356 小时
注册时间
2011-11-11
发表于 2011-12-3 02:27:29 |显示全部楼层
第一时间顶起

使用道具 举报

您需要登录后才可以回帖 登录 | 注册帐号

回顶部