MaxRNB

 找回密码
 注册帐号

QQ登录

查看: 7181|回复: 174

[Master] Taylor Swift - Love Story - Master (Edited) 终极版本 - 788M [115]

Rank: 18Rank: 18Rank: 18Rank: 18Rank: 18Rank: 18

帖子
931
推广
0
资源
270
人气
900
在线时间
2473 小时
注册时间
2011-4-23
发表于 2012-2-18 12:07:38 |显示全部楼层
如果我说这个标清master秒杀所有hdtv/vob/720p master upcale/master (412M版本)甚至CMT的1080i你信吗?
事实就是如此 相对其他版本来说 画质无可挑剔 而且没有锯齿~

不过好像happyftp有人做了master rip 不知道效果怎么样 什么源做的
没在那边注册    现在已经不让注册了==

这个视频我已经后处理过 标了edited 修复了源存在的一些问题
后期编码采用了h264无损编码(量化=0 YUV 4:4:4) 尽量防止2次编码带来的画质损失


Source : Master
Codec : AVC(Lossless)+LPCM
Container : Qt-MOV


General
Complete name                    : Love Story - Master (Ultimate Version).mov
Format                           : MPEG-4
Format profile                   : QuickTime
Codec ID                         : qt  
File size                        : 788 MiB
Duration                         : 4mn 3s
Overall bit rate                 : 27.1 Mbps
Writing application              : Lavf52.87.1

Video
ID                               : 1
Format                           : AVC
Format/Info                      : Advanced Video Codec
Format profile                   : High 4:4:4 Predictive@L5.1
Format settings, CABAC           : No
Format settings, ReFrames        : 1 frame
Codec ID                         : avc1
Codec ID/Info                    : Advanced Video Coding
Duration                         : 4mn 3s
Bit rate mode                    : Variable
Bit rate                         : 25.6 Mbps
Width                            : 720 pixels
Height                           : 402 pixels
Display aspect ratio             : 16:9
Frame rate mode                  : Constant
Frame rate                       : 23.976 fps
Original frame rate              : 47.952 fps
Resolution                       : 8 bits
Colorimetry                      : 4:2:0
Scan type                        : Progressive
Bits/(Pixel*Frame)               : 3.687
Stream size                      : 744 MiB (94%)
Writing library                  : x264 core 116 r2074 2641b9e
Encoding settings                : cabac=0 / ref=1 / deblock=0:0:0 / analyse=0:0 / me=dia / subme=0 / psy=0 / mixed_ref=0 / me_range=16 / chroma_me=1 / trellis=0 / 8x8dct=0 / cqm=0 / deadzone=21,11 / fast_pskip=0 / chroma_qp_offset=0 / threads=6 / sliced_threads=0 / nr=0 / decimate=1 / interlaced=0 / bluray_compat=0 / constrained_intra=0 / bframes=0 / weightp=0 / keyint=250 / keyint_min=23 / scenecut=0 / intra_refresh=0 / rc=cqp / mbtree=0 / qp=0
Language                         : English

Audio
ID                               : 2
Format                           : PCM
Format settings, Endianness      : Little
Format settings, Sign            : Signed
Codec ID                         : sowt
Duration                         : 4mn 3s
Bit rate mode                    : Constant
Bit rate                         : 1 536 Kbps
Channel(s)                       : 2 channels
Sampling rate                    : 48.0 KHz
Resolution                       : 16 bits
Stream size                      : 44.6 MiB (6%)
Language                         : English

Download Link
游客,如果您要查看本帖隐藏内容请回复

4

查看全部评分

Rank: 18Rank: 18Rank: 18Rank: 18Rank: 18Rank: 18

帖子
1191
推广
1
资源
0
人气
14
在线时间
1533 小时
注册时间
2009-3-27
发表于 2012-2-18 12:14:04 |显示全部楼层
经典的mv!哈哈下来看看!

使用道具 举报

Rank: 13Rank: 13Rank: 13Rank: 13Rank: 13

帖子
659
推广
7
资源
95
人气
389
在线时间
733 小时
注册时间
2009-3-21
发表于 2012-2-18 12:32:30 |显示全部楼层
用412M的处理成这样高清的?技术贴啊!

使用道具 举报

Rank: 18Rank: 18Rank: 18Rank: 18Rank: 18Rank: 18

帖子
931
推广
0
资源
270
人气
900
在线时间
2473 小时
注册时间
2011-4-23
发表于 2012-2-18 12:34:05 |显示全部楼层
mvddd 发表于 2012-2-18 12:32
用412M的处理成这样高清的?技术贴啊!

源不是412M版本
那个有锯齿 已经不能恢复了

使用道具 举报

Rank: 23Rank: 23Rank: 23Rank: 23Rank: 23Rank: 23Rank: 23

帖子
3322
推广
9
资源
0
人气
485
在线时间
3255 小时
注册时间
2008-6-20
发表于 2012-2-18 12:35:30 |显示全部楼层
虽然不懂LZ在说什么,但是感觉很厉害的样子..

使用道具 举报

Rank: 13Rank: 13Rank: 13Rank: 13Rank: 13

帖子
659
推广
7
资源
95
人气
389
在线时间
733 小时
注册时间
2009-3-21
发表于 2012-2-18 12:37:55 |显示全部楼层
feisty2 发表于 2012-2-18 12:34
源不是412M版本
那个有锯齿 已经不能恢复了

哦,了解了

使用道具 举报

Rank: 30Rank: 30

帖子
22415
推广
222
资源
28
人气
1004
在线时间
3173 小时
注册时间
2008-9-14
发表于 2012-2-18 12:47:26 |显示全部楼层
看截图就很棒!

使用道具 举报

Rank: 18Rank: 18Rank: 18Rank: 18Rank: 18Rank: 18

帖子
1147
推广
11
资源
625
人气
870
在线时间
1858 小时
注册时间
2011-7-30
发表于 2012-2-18 13:12:43 |显示全部楼层
看来这个东西老是出不同的资源,但愿这是最后一个

使用道具 举报

Rank: 18Rank: 18Rank: 18Rank: 18Rank: 18Rank: 18

帖子
1564
推广
292
资源
1173
人气
1318
在线时间
1919 小时
注册时间
2008-9-27

音乐达人

发表于 2012-2-18 13:21:58 |显示全部楼层
那么就是很号喽 就是完美的是吧 我要下载,了谢谢分享

使用道具 举报

Rank: 29Rank: 29Rank: 29Rank: 29Rank: 29

帖子
6034
推广
464
资源
527
人气
2
在线时间
8240 小时
注册时间
2009-9-5
发表于 2012-2-18 13:26:51 |显示全部楼层
CARTER 发表于 2012-2-18 12:35
虽然不懂LZ在说什么,但是感觉很厉害的样子..

同意…………

使用道具 举报

您需要登录后才可以回帖 登录 | 注册帐号

回顶部