MaxRNB

 找回密码
 注册帐号

QQ登录

查看: 1782|回复: 38

[高清HD] Inna Ft. Flo Rida - Club Rocker (Cutmore Remix) - 1080p - 118MB [XF]

Rank: 17Rank: 17Rank: 17Rank: 17Rank: 17

帖子
12312
推广
612
资源
6765
人气
38444
在线时间
11421 小时
注册时间
2008-6-7

热心会员 音乐达人 荣誉会员

发表于 2012-8-11 08:32:29 |显示全部楼层
Inna Ft. Flo Rida - Club Rocker (Cutmore Remix)(1080p).jpg

Video #1
      ID : 1
      Format : AVC
      Format/Info : Advanced Video Codec
      Format profile : High@L4.0
      Format settings, CABAC : Yes
      Format settings, ReFrames : 1 frame
      Codec ID : avc1
      Codec ID/Info : Advanced Video Coding
      Duration : 3mn 13s
      Bit rate mode : Variable
      Bit rate : 4 928 Kbps
      Maximum bit rate : 8 777 Kbps
      Width : 1 920 pixels
      Height : 1 080 pixels
      Display aspect ratio : 16:9
      Frame rate mode : Constant
      Frame rate : 25.000 fps
      Color space : YUV
      Chroma subsampling : 4:2:0
      Bit depth : 8 bits
      Scan type : Progressive
      Bits/(Pixel*Frame) : 0.095
      Stream size : 114 MiB (96%)

Audio #2
      ID : 2
      Format : AAC
      Format/Info : Advanced Audio Codec
      Format profile : LC
      Codec ID : 40
      Duration : 3mn 13s
      Bit rate mode : Variable
      Bit rate : 192 Kbps
      Maximum bit rate : 201 Kbps
      Channel(s) : 2 channels
      Channel positions : Front: L R
      Sampling rate : 44.1 KHz
      Compression mode : Lossy
      Stream size : 4.44 MiB (4%)

 

 


游客,如果您要查看本帖隐藏内容请回复

Rank: 6Rank: 6

帖子
86
推广
0
资源
0
人气
0
在线时间
25 小时
注册时间
2012-6-27
发表于 2012-8-11 12:00:01 |显示全部楼层
很喜欢

使用道具 举报

Rank: 16Rank: 16Rank: 16Rank: 16

帖子
1408
推广
0
资源
0
人气
0
在线时间
528 小时
注册时间
2011-7-3
发表于 2012-8-11 12:01:47 |显示全部楼层
就爱看有车的

使用道具 举报

Rank: 30Rank: 30

帖子
12296
推广
0
资源
6
人气
880
在线时间
2786 小时
注册时间
2012-2-21
发表于 2012-8-11 13:37:49 |显示全部楼层
哇   大牌

使用道具 举报

Rank: 16Rank: 16Rank: 16Rank: 16

帖子
1279
推广
17
资源
9
人气
232
在线时间
1009 小时
注册时间
2008-10-18
发表于 2012-8-11 14:03:47 |显示全部楼层
FLO RIDA一定要收

使用道具 举报

Rank: 18Rank: 18Rank: 18Rank: 18Rank: 18Rank: 18

帖子
1092
推广
0
资源
0
人气
-40
在线时间
856 小时
注册时间
2011-6-1
发表于 2012-8-11 14:08:22 |显示全部楼层
这两个人劲暴了

使用道具 举报

Rank: 27Rank: 27Rank: 27

帖子
2334
推广
0
资源
7
人气
10
在线时间
1784 小时
注册时间
2011-10-4
发表于 2012-8-11 18:26:46 |显示全部楼层
舞曲天后,好喜欢她的歌,谢谢分享

使用道具 举报

Rank: 13Rank: 13Rank: 13Rank: 13Rank: 13

帖子
1050
推广
0
资源
6
人气
72
在线时间
336 小时
注册时间
2012-7-22
发表于 2012-8-11 19:51:56 |显示全部楼层
这个很赞,必须顶,果断收了

使用道具 举报

Rank: 14Rank: 14Rank: 14Rank: 14Rank: 14Rank: 14

帖子
888
推广
0
资源
0
人气
8
在线时间
580 小时
注册时间
2008-10-14
发表于 2012-8-12 11:02:10 |显示全部楼层
感谢发布

使用道具 举报

Rank: 7Rank: 7Rank: 7

帖子
307
推广
0
资源
0
人气
-42
在线时间
300 小时
注册时间
2011-12-25
发表于 2012-8-12 14:18:19 |显示全部楼层
谢谢分享很棒的音乐

使用道具 举报

您需要登录后才可以回帖 登录 | 注册帐号

回顶部