MaxRNB

 找回密码
 注册帐号

QQ登录

查看: 1954|回复: 89

[高清HD] Selena Gomez-Come Get It-【1080P】【度盘】

Rank: 14Rank: 14Rank: 14Rank: 14Rank: 14Rank: 14

帖子
528
推广
3
资源
209
人气
237
在线时间
658 小时
注册时间
2011-4-27
发表于 2013-5-8 10:20:44 |显示全部楼层
Selena Gomez - Come _ Get It.jpg

Selena Gomez - Come _ Get It.mp4
   General
      Complete name : C:\Documents and Settings\\Selena Gomez - Come _ Get It.mp4
      Format : MPEG-4
      Format profile : Base Media / Version 2
      Codec ID : mp42
      File size : 132 MiB
      Duration : 4mn 49s
      Overall bit rate : 3 821 Kbps
      Encoded date : UTC 2013-05-02 02:17:13
      Tagged date : UTC 2013-05-02 02:17:13
      gsst : 0
      gstd : 289481
      gssd : BADC21AA3HH1367978744651926
      gshh : r11---sn-a5m7ln7r.c.youtube.com
   Video #1
      ID : 1
      Format : AVC
      Format/Info : Advanced Video Codec
      Format profile : High@L4.0
      Format settings, CABAC : Yes
      Format settings, ReFrames : 1 frame
      Codec ID : avc1
      Codec ID/Info : Advanced Video Coding
      Duration : 4mn 49s
      Bit rate mode : Variable
      Bit rate : 3 626 Kbps
      Maximum bit rate : 8 746 Kbps
      Width : 1 920 pixels
      Height : 1 080 pixels
      Display aspect ratio : 16:9
      Frame rate mode : Constant
      Frame rate : 23.976 fps
      Color space : YUV
      Chroma subsampling : 4:2:0
      Bit depth : 8 bits
      Scan type : Progressive
      Bits/(Pixel*Frame) : 0.073
      Stream size : 125 MiB (95%)
      Tagged date : UTC 2013-05-02 02:17:32
   Audio #2
      ID : 2
      Format : AAC
      Format/Info : Advanced Audio Codec
      Format profile : LC
      Codec ID : 40
      Duration : 4mn 49s
      Bit rate mode : Variable
      Bit rate : 192 Kbps
      Maximum bit rate : 201 Kbps
      Channel(s) : 2 channels
      Channel positions : Front: L R
      Sampling rate : 44.1 KHz
      Compression mode : Lossy
      Stream size : 6.62 MiB (5%)
      Title : IsoMedia File Produced by Google, 5-11-2011
      Encoded date : UTC 2013-05-02 02:17:25
      Tagged date : UTC 2013-05-02 02:17:32

游客,如果您要查看本帖隐藏内容请回复
1

查看全部评分

Rank: 18Rank: 18Rank: 18Rank: 18Rank: 18Rank: 18

帖子
1479
推广
0
资源
0
人气
1
在线时间
559 小时
注册时间
2011-9-26
发表于 2013-5-8 10:25:02 |显示全部楼层
wowo,im sofa ,thanks

使用道具 举报

Rank: 14Rank: 14Rank: 14Rank: 14Rank: 14Rank: 14

帖子
1698
推广
0
资源
0
人气
0
在线时间
1037 小时
注册时间
2012-11-4
发表于 2013-5-8 10:28:15 |显示全部楼层
谢谢分享,最喜欢这首MV

使用道具 举报

Rank: 26Rank: 26

帖子
2874
推广
0
资源
49
人气
150
在线时间
2300 小时
注册时间
2011-6-7
发表于 2013-5-8 10:28:35 |显示全部楼层
楼主速度很快啊 哈哈

使用道具 举报

Rank: 11Rank: 11Rank: 11

帖子
518
推广
0
资源
0
人气
0
在线时间
237 小时
注册时间
2010-7-27
发表于 2013-5-8 10:44:47 |显示全部楼层
新单曲,好妖艳啊!
   

使用道具 举报

Rank: 16Rank: 16Rank: 16Rank: 16

帖子
907
推广
7
资源
0
人气
30
在线时间
262 小时
注册时间
2008-6-27
发表于 2013-5-8 11:15:50 |显示全部楼层
喜欢·多谢LZ分享!

使用道具 举报

Rank: 11Rank: 11Rank: 11

帖子
436
推广
0
资源
0
人气
0
在线时间
183 小时
注册时间
2012-6-29
发表于 2013-5-8 11:27:19 |显示全部楼层
狗妹子来喽

使用道具 举报

Rank: 30Rank: 30

帖子
4889
推广
11
资源
0
人气
88
在线时间
7890 小时
注册时间
2008-6-26
发表于 2013-5-8 12:09:31 |显示全部楼层
很好听的呢,谢谢分享

使用道具 举报

Rank: 30Rank: 30

帖子
10723
推广
157
资源
7261
人气
18874
在线时间
6750 小时
注册时间
2010-3-28

音乐达人

发表于 2013-5-8 12:24:20 |显示全部楼层
蕾哈娜有点 还有我看到Selena Gomez我好像看到一个幼女在拍AV 抱歉 MV很不错
FBI=忠诚Fidelity,勇敢Bravery和正直Integrity我是一只活跃的雄性动物,于公元1989年降临这个充满爱的世界,现在我站起来的高度超过1.69米,我现在已经性成熟。精力旺盛,由于没有相当大小的异性玩伴,体内荷尔蒙难以释放,所以我时常。。

使用道具 举报

Rank: 21Rank: 21Rank: 21Rank: 21Rank: 21

帖子
1498
推广
0
资源
27
人气
144
在线时间
4013 小时
注册时间
2012-3-15
发表于 2013-5-8 12:41:13 |显示全部楼层
收下了 感谢分享

使用道具 举报

您需要登录后才可以回帖 登录 | 注册帐号

回顶部