MaxRNB

 找回密码
 注册帐号

QQ登录

查看: 371|回复: 8

[Master] The Killers - Read My Mind (Retail Cd Audio-Master-720p-H264)-986M[Baidu]

Rank: 18Rank: 18Rank: 18Rank: 18Rank: 18Rank: 18

帖子
1147
推广
11
资源
625
人气
870
在线时间
1858 小时
注册时间
2011-7-30
发表于 2013-7-7 19:51:33 |显示全部楼层
图片1.jpg
  1. K:\mv\The Killers\The killers-Read My Mind(Pcm-Master-720P-H264).mov
  2.    General
  3.       Complete name : K:\mv\The Killers\The killers-Read My Mind(Pcm-Master-720P-H264).mov
  4.       Format : MPEG-4
  5.       Format profile : QuickTime
  6.       Codec ID : qt  
  7.       File size : 986 MiB
  8.       Duration : 4mn 11s
  9.       Overall bit rate : 32.9 Mbps
  10.       Encoded date : UTC 2012-12-02 08:23:16
  11.       Tagged date : UTC 2012-12-02 08:32:59
  12.       Writing library : Apple QuickTime 7.7.1
  13.       Original source medium : 001
  14.       Media/UUID : 507E1B5D-5C10-48DD-8376-6FE23EF740B3
  15.       Media/History/UUID : 280C1294-4689-482C-89D2-0D400060E216
  16.       com.apple.quicktime.player.movie.audio.mute : (Binary)
  17.    Video #1
  18.       ID : 1
  19.       Format : AVC
  20.       Format/Info : Advanced Video Codec
  21.       Format profile : Main@L4.1
  22.       Format settings, CABAC : No
  23.       Format settings, ReFrames : 2 frames
  24.       Codec ID : avc1
  25.       Codec ID/Info : Advanced Video Coding
  26.       Duration : 4mn 11s
  27.       Bit rate : 31.5 Mbps
  28.       Width : 1 280 pixels
  29.       Height : 960 pixels
  30.       Display aspect ratio : 4:3
  31.       Frame rate mode : Constant
  32.       Frame rate : 29.970 fps
  33.       Color space : YUV
  34.       Chroma subsampling : 4:2:0
  35.       Bit depth : 8 bits
  36.       Scan type : Progressive
  37.       Bits/(Pixel*Frame) : 0.855
  38.       Stream size : 944 MiB (96%)
  39.       Title : 苹果视频媒体处理程序 / Apple 替身数据处理程序
  40.       Language : English
  41.       Encoded date : UTC 2012-08-21 12:10:29
  42.       Tagged date : UTC 2012-12-02 08:32:59
  43.       Color primaries : BT.709-5, BT.1361, IEC 61966-2-4, SMPTE RP177
  44.       Transfer characteristics : BT.709-5, BT.1361
  45.       Matrix coefficients : BT.709-5, BT.1361, IEC 61966-2-4 709, SMPTE RP177
  46.    Audio #4
  47.       ID : 4
  48.       Format : PCM
  49.       Format settings, Endianness : Little
  50.       Format settings, Sign : Signed
  51.       Codec ID : sowt
  52.       Duration : 4mn 8s
  53.       Bit rate mode : Constant
  54.       Bit rate : 1 411.2 Kbps
  55.       Channel(s) : 2 channels
  56.       Sampling rate : 44.1 KHz
  57.       Bit depth : 16 bits
  58.       Stream size : 41.8 MiB (4%)
  59.       Title : 苹果声频媒体处理程序 / Apple 替身数据处理程序
  60.       Language : English
  61.       Encoded date : UTC 2012-12-02 08:19:38
  62.       Tagged date : UTC 2012-12-02 08:33:00
复制代码
游客,如果您要查看本帖隐藏内容请回复
1

查看全部评分

Rank: 16Rank: 16Rank: 16Rank: 16

帖子
1197
推广
7
资源
0
人气
0
在线时间
366 小时
注册时间
2012-11-11
发表于 2013-7-7 20:12:36 |显示全部楼层
下载来看看哦

使用道具 举报

Rank: 16Rank: 16Rank: 16Rank: 16

帖子
1224
推广
0
资源
45
人气
239
在线时间
49 小时
注册时间
2011-3-23
发表于 2013-7-7 20:41:24 |显示全部楼层
最喜欢杀手的一首

使用道具 举报

Rank: 23Rank: 23Rank: 23Rank: 23Rank: 23Rank: 23Rank: 23

帖子
2042
推广
1
资源
137
人气
814
在线时间
1668 小时
注册时间
2008-11-3
发表于 2013-7-7 21:06:30 |显示全部楼层
收藏起来 谢谢

使用道具 举报

Rank: 30Rank: 30

帖子
22415
推广
222
资源
28
人气
1004
在线时间
3173 小时
注册时间
2008-9-14
发表于 2013-7-8 18:00:10 |显示全部楼层
喜欢这种感觉的MV

使用道具 举报

Rank: 23Rank: 23Rank: 23Rank: 23Rank: 23Rank: 23Rank: 23

帖子
3438
推广
2
资源
90
人气
152
在线时间
2914 小时
注册时间
2011-6-7
发表于 2013-7-9 19:05:23 |显示全部楼层
下来看看

使用道具 举报

帖子
986
推广
0
资源
5
人气
3
在线时间
253 小时
注册时间
2012-6-9
发表于 2013-7-25 16:37:15 |显示全部楼层
提示: 作者被禁止或删除 内容自动屏蔽
签名被屏蔽

使用道具 举报

Rank: 11Rank: 11Rank: 11

帖子
289
推广
0
资源
0
人气
0
在线时间
164 小时
注册时间
2012-12-17
发表于 2015-5-26 15:15:59 |显示全部楼层
收藏收藏

使用道具 举报

Rank: 4Rank: 4Rank: 4Rank: 4

帖子
62
推广
0
资源
0
人气
0
在线时间
16 小时
注册时间
2016-11-25
发表于 2017-11-14 23:23:16 |显示全部楼层
还有效吗~~~

使用道具 举报

您需要登录后才可以回帖 登录 | 注册帐号

回顶部