MaxRNB

 找回密码
 注册帐号

QQ登录

查看: 534|回复: 16

[Master] Kendrick Lamar - Don't Kill My Vibe(Director's Cut) - 720P - 634M

Rank: 13Rank: 13Rank: 13Rank: 13Rank: 13

帖子
573
推广
3
资源
215
人气
831
在线时间
511 小时
注册时间
2013-1-20
发表于 2013-7-16 22:32:18 |显示全部楼层
导演剪辑版Master,跟正式版有较多不同,正式版时长5分13秒,这个是5分18秒

Kendrick Lamar - Don\'t Kill My Vibe(Director\'s Cut)(AAC-720P-Mas.jpg


Kendrick Lamar - Don\'t Kill My Vibe(Director\'s Cut)(AAC-720P-Mas.jpg


Kendrick Lamar - Don\'t Kill My Vibe(Director\'s Cut)(AAC-720P-Mas.jpg


Kendrick Lamar - Don\'t Kill My Vibe(Director\'s Cut)(AAC-720P-Mas.jpg
  1. D:\My Documents\Downloads\Kendrick Lamar - Don't Kill My Vibe(Director's Cut)(AAC-720P-Master-H264).mov
  2.   General
  3.     Complete name : D:\My Documents\Downloads\Kendrick Lamar - Don't Kill My Vibe(Director's Cut)(AAC-720P-Master-H264).mov
  4.     Format : MPEG-4
  5.     Format profile : QuickTime
  6.     Codec ID : qt  
  7.     File size : 635 MiB
  8.     Duration : 5mn 18s
  9.     Overall bit rate : 16.7 Mbps
  10.     Encoded date : UTC 2013-06-07 03:46:09
  11.     Tagged date : UTC 2013-06-07 04:17:00
  12.     Writing library : Apple QuickTime
  13.     Media/UUID : 03F61AA4-959E-4C35-8C44-8559D2686F83
  14.     Media/History/UUID : EA87D5CA-C3E6-43B5-87DA-BEA4FE8BD942
  15.   Video #1
  16.     ID : 1
  17.     Format : AVC
  18.     Format/Info : Advanced Video Codec
  19.     Format profile : Main@L4.1
  20.     Format settings, CABAC : No
  21.     Format settings, ReFrames : 2 frames
  22.     Codec ID : avc1
  23.     Codec ID/Info : Advanced Video Coding
  24.     Duration : 5mn 18s
  25.     Bit rate : 16.4 Mbps
  26.     Width : 1 248 pixels
  27.     Original width : 1 280 pixels
  28.     Height : 702 pixels
  29.     Original height : 720 pixels
  30.     Display aspect ratio : 16:9
  31.     Frame rate mode : Constant
  32.     Frame rate : 23.976 fps
  33.     Color space : YUV
  34.     Chroma subsampling : 4:2:0
  35.     Bit depth : 8 bits
  36.     Scan type : Progressive
  37.     Bits/(Pixel*Frame) : 0.782
  38.     Stream size : 623 MiB (98%)
  39.     Language : English
  40.     Encoded date : UTC 2013-06-07 04:16:38
  41.     Tagged date : UTC 2013-06-07 04:17:00
  42.     Color primaries : BT.709
  43.     Transfer characteristics : BT.709
  44.     Matrix coefficients : BT.709
  45.   Audio #2
  46.     ID : 2
  47.     Format : AAC
  48.     Format/Info : Advanced Audio Codec
  49.     Format profile : LC
  50.     Codec ID : 40
  51.     Duration : 5mn 18s
  52.     Source duration : 5mn 18s
  53.     Bit rate mode : Constant
  54.     Bit rate : 320 Kbps
  55.     Channel count : 2 channels
  56.     Channel positions : Front: L R
  57.     Sampling rate : 48.0 KHz
  58.     Compression mode : Lossy
  59.     Stream size : 12.0 MiB (2%)
  60.     Source stream size : 12.0 MiB (2%)
  61.     Language : English
  62.     Encoded date : UTC 2013-06-07 04:16:38
  63.     Tagged date : UTC 2013-06-07 04:17:00
  64.   Other #3
  65.     ID : 3
  66.     Type : Time code
  67.     Format : QuickTime TC
  68.     Duration : 5mn 18s
  69.     Time code of first frame : 01:00:00:00
  70.     Time code settings : Striped
  71.     Language : English
  72.     Encoded date : UTC 2013-06-07 04:17:00
  73.     Tagged date : UTC 2013-06-07 04:17:00
复制代码
游客,如果您要查看本帖隐藏内容请回复


1

查看全部评分

I'll Be Back.

Rank: 30Rank: 30

帖子
22396
推广
222
资源
28
人气
1004
在线时间
3173 小时
注册时间
2008-9-14
发表于 2013-7-16 23:23:18 |显示全部楼层
这首MV拍的很美呀

使用道具 举报

Rank: 25

帖子
2713
推广
0
资源
69
人气
54
在线时间
1520 小时
注册时间
2010-9-4
发表于 2013-7-16 23:56:46 |显示全部楼层
谢谢分享master,很清楚!

使用道具 举报

Rank: 22Rank: 22Rank: 22Rank: 22Rank: 22Rank: 22

帖子
2644
推广
54
资源
0
人气
25
在线时间
1117 小时
注册时间
2009-5-24
发表于 2013-7-17 19:07:56 |显示全部楼层
thanks

使用道具 举报

Rank: 27Rank: 27Rank: 27

帖子
4177
推广
39
资源
102
人气
966
在线时间
4032 小时
注册时间
2009-6-26
发表于 2013-7-17 20:54:36 |显示全部楼层
MV拍的好有趣! 特来下载!

使用道具 举报

帖子
986
推广
0
资源
5
人气
3
在线时间
253 小时
注册时间
2012-6-9
发表于 2013-7-25 17:00:36 |显示全部楼层
提示: 作者被禁止或删除 内容自动屏蔽

使用道具 举报

Rank: 17Rank: 17Rank: 17Rank: 17Rank: 17

帖子
1503
推广
0
资源
0
人气
-27
在线时间
738 小时
注册时间
2009-11-26
发表于 2013-7-28 20:42:48 |显示全部楼层
顶楼主啦..希望楼主多发精品好帖啦.....

使用道具 举报

Rank: 3Rank: 3Rank: 3

帖子
14
推广
0
资源
0
人气
0
在线时间
2 小时
注册时间
2012-12-30
发表于 2013-9-11 17:15:14 |显示全部楼层
拍得很美的MV

使用道具 举报

Rank: 21Rank: 21Rank: 21Rank: 21Rank: 21

帖子
2694
推广
0
资源
0
人气
0
在线时间
907 小时
注册时间
2011-9-24
发表于 2013-9-11 18:22:14 |显示全部楼层
谢谢分享maste

使用道具 举报

Rank: 14Rank: 14Rank: 14Rank: 14Rank: 14Rank: 14

帖子
1074
推广
0
资源
0
人气
135
在线时间
696 小时
注册时间
2009-1-10
发表于 2013-10-13 19:30:50 |显示全部楼层
起初觉得他长得很村,后来发现人家那才叫气质

使用道具 举报

您需要登录后才可以回帖 登录 | 注册帐号

回顶部