MaxRNB

 找回密码
 注册帐号

QQ登录

查看: 1370|回复: 31

[其他Others] Shayne Ward - No U Hang Up (Lpcm-Clean-H264) 多版本 1.13G/ 度盘 链接已更

Rank: 18Rank: 18Rank: 18Rank: 18Rank: 18Rank: 18

帖子
931
推广
0
资源
270
人气
900
在线时间
2473 小时
注册时间
2011-4-23
发表于 2014-8-20 16:25:45 |显示全部楼层
我会发布未降噪版本 (临时) 降噪版本 和高质量upscale版本

降噪版本还在处理 要等了

降噪版本完成我会删掉这个版本 因为这个画质不完美实在对不起体积

首先是没有降噪的

General
Complete name                            : Shayne Ward - No U Hang Up (Lpcm-Clean-H264-RC1).mov
Format                                   : MPEG-4
Format profile                           : QuickTime
Codec ID                                 : qt  
File size                                : 1.13 GiB
Duration                                 : 4mn 19s
Overall bit rate                         : 37.4 Mbps
Encoded date                             : UTC 2014-08-20 07:45:49
Tagged date                              : UTC 2014-08-20 08:47:45
Writing library                          : Apple QuickTime 7.7.5
com.apple.quicktime.player.movie.audio.m : (Binary)

Video
ID                                       : 1
Format                                   : AVC
Format/Info                              : Advanced Video Codec
Format profile                           : High 4:4:4 Predictive@L3.0
Format settings, CABAC                   : No
Format settings, ReFrames                : 1 frame
Codec ID                                 : avc1
Codec ID/Info                            : Advanced Video Coding
Duration                                 : 4mn 19s
Bit rate                                 : 35.9 Mbps
Width                                    : 720 pixels
Height                                   : 406 pixels
Display aspect ratio                     : 16:9
Frame rate mode                          : Constant
Frame rate                               : 25.000 fps
Color space                              : YUV
Chroma subsampling                       : 4:2:0
Bit depth                                : 10 bits
Scan type                                : Progressive
Bits/(Pixel*Frame)                       : 4.912
Stream size                              : 1.09 GiB (96%)
Writing library                          : x264 core 138 r2359+704+48 3f879a0 tMod [10-bit@all X86]
Encoding settings                        : cabac=0 / ref=1 / deblock=0:0:0 / analyse=0:0 / me=dia / subme=0 / psy=0 / mixed_ref=0 / me_range=16 / chroma_me=1 / trellis=0 / 8x8dct=0 / cqm=0 / deadzone=21,11 / fast_pskip=0 / chroma_qp_offset=0 / threads=6 / lookahead_threads=1 / sliced_threads=0 / nr=0 / decimate=1 / interlaced=0 / bluray_compat=0 / constrained_intra=0 / fgo=0 / bframes=0 / weightp=0 / keyint=250 / keyint_min=25 / scenecut=0 / intra_refresh=0 / rc=cqp / mbtree=0 / qp=0
Language                                 : English
Encoded date                             : UTC 2014-08-20 07:45:49
Tagged date                              : UTC 2014-08-20 07:45:49

Audio
ID                                       : 2
Format                                   : PCM
Format settings, Endianness              : Little
Format settings, Sign                    : Signed
Codec ID                                 : sowt
Duration                                 : 4mn 19s
Bit rate mode                            : Constant
Bit rate                                 : 1 536 Kbps
Channel(s)                               : 2 channels
Channel positions                        : Front: L R
Sampling rate                            : 48.0 KHz
Bit depth                                : 16 bits
Stream size                              : 47.6 MiB (4%)
Language                                 : English
Encoded date                             : UTC 2014-08-20 07:45:49
Tagged date                              : UTC 2014-08-20 08:47:45
画质见截图


如果你是画质控 细节控 线条控 不是体积控 性价比控  其他版本可以直接删掉了
同时这个版本是10bpc的无损编码版本 (qp=0无量化 完全无损)  如果想rip随意
转载随意 标明来源

DL   
游客,如果您要查看本帖隐藏内容请回复
2

查看全部评分

Rank: 18Rank: 18Rank: 18Rank: 18Rank: 18Rank: 18

帖子
931
推广
0
资源
270
人气
900
在线时间
2473 小时
注册时间
2011-4-23
发表于 2014-8-20 16:28:33 |显示全部楼层
靠...度盘传到95%突然死掉了...

使用道具 举报

Rank: 22Rank: 22Rank: 22Rank: 22Rank: 22Rank: 22

帖子
2300
推广
31
资源
620
人气
2131
在线时间
1176 小时
注册时间
2011-6-27
发表于 2014-8-20 16:29:08 |显示全部楼层
谢谢力作,能给个100-300M的rip就更好了……话说下载链接呢!!
Die in Paradize.

使用道具 举报

Rank: 18Rank: 18Rank: 18Rank: 18Rank: 18Rank: 18

帖子
931
推广
0
资源
270
人气
900
在线时间
2473 小时
注册时间
2011-4-23
发表于 2014-8-20 16:30:48 |显示全部楼层
披着羽翼的羊 发表于 2014-8-20 16:29
谢谢力作,能给个100-300M的rip就更好了……话说下载链接呢!!

快传完的时候死了
正在重传

使用道具 举报

Rank: 10Rank: 10

帖子
364
推广
4
资源
390
人气
128
在线时间
145 小时
注册时间
2012-12-9
发表于 2014-8-20 16:37:21 |显示全部楼层
百度上传好慢 还是115比较快点

使用道具 举报

Rank: 18Rank: 18Rank: 18Rank: 18Rank: 18Rank: 18

帖子
931
推广
0
资源
270
人气
900
在线时间
2473 小时
注册时间
2011-4-23
发表于 2014-8-20 16:42:24 |显示全部楼层
艾薇儿的布GAGA 发表于 2014-8-20 16:37
百度上传好慢 还是115比较快点

差不多 对我的线路都慢

使用道具 举报

Rank: 22Rank: 22Rank: 22Rank: 22Rank: 22Rank: 22

帖子
1791
推广
11
资源
138
人气
398
在线时间
2030 小时
注册时间
2011-2-7
发表于 2014-8-20 18:05:20 |显示全部楼层
很喜欢这支MV,当初引进时还被CUT掉了。。。。。

使用道具 举报

Rank: 29Rank: 29Rank: 29Rank: 29Rank: 29

帖子
4040
推广
20
资源
0
人气
21
在线时间
3394 小时
注册时间
2009-12-10
发表于 2014-8-20 18:24:22 |显示全部楼层
很老的MV了

使用道具 举报

Rank: 12Rank: 12Rank: 12Rank: 12

帖子
3681
推广
12
资源
4952
人气
7587
在线时间
5215 小时
注册时间
2011-5-27

音乐达人

发表于 2014-8-20 19:23:09 |显示全部楼层
最好别用管家传. 各种毛病. 一直用网页传 没出过什么问题

使用道具 举报

Rank: 18Rank: 18Rank: 18Rank: 18Rank: 18Rank: 18

帖子
931
推广
0
资源
270
人气
900
在线时间
2473 小时
注册时间
2011-4-23
发表于 2014-8-20 19:36:09 |显示全部楼层
我是在用网页传 先传快穿完的时候tnlmeans突然爆内存把电脑搞死机然后ie顺利停止响应退出
重传的时候鬼知道为什么没有继续 又从0%开始了 悲剧

使用道具 举报

您需要登录后才可以回帖 登录 | 注册帐号

回顶部