MaxRNB

 找回密码
 注册帐号

QQ登录

查看: 1788|回复: 28

[Master] Madonna feat. Nicki Minaj - Bitch I'm Madonna (LPCM-Master-1080p-ProRes-2015)

Rank: 12Rank: 12Rank: 12Rank: 12

帖子
3681
推广
12
资源
4952
人气
7587
在线时间
5215 小时
注册时间
2011-5-27

音乐达人

发表于 2015-8-18 12:15:56 |显示全部楼层





  1. General
  2.     Complete name : C:\Users\Administrator\Desktop\Madonna ft Nicki Minaj - Bitch Im Madonna.mov
  3.     Format : MPEG-4
  4.     Format profile : QuickTime
  5.     Codec ID : qt  
  6.     File size : 5.22 GiB
  7.     Duration : 4mn 2s
  8.     Overall bit rate : 185 Mbps
  9.     Encoded date : UTC 2015-06-17 07:38:29
  10.     Tagged date : UTC 2015-06-17 07:52:21
  11.     Writing library : Apple QuickTime 7.7.3
  12.     com.apple.quicktime.player.movie.audio.mute : (Binary)
  13.     ㏕IM : 00:00:00:00
  14.     ㏕SC : 24000
  15.     ㏕SZ : 1001
  16.   Video #1
  17.     ID : 1
  18.     Format : ProRes
  19.     Format profile : High
  20.     Codec ID : apch
  21.     Duration : 4mn 2s
  22.     Bit rate mode : Variable
  23.     Bit rate : 183 Mbps
  24.     Width : 1 920 pixels
  25.     Height : 1 080 pixels
  26.     Display aspect ratio : 16:9
  27.     Frame rate mode : Constant
  28.     Frame rate : 23.976 fps
  29.     Color space : YUV
  30.     Chroma subsampling : 4:2:2
  31.     Scan type : Progressive
  32.     Bits/(Pixel*Frame) : 3.685
  33.     Stream size : 5.18 GiB (99%)
  34.     Language : English
  35.     Encoded date : UTC 2015-06-17 07:38:29
  36.     Tagged date : UTC 2015-06-17 07:42:33
  37.   Audio #2
  38.     ID : 2
  39.     Format : PCM
  40.     Format settings, Endianness : Little
  41.     Format settings, Sign : Signed
  42.     Codec ID : sowt
  43.     Duration : 4mn 2s
  44.     Bit rate mode : Constant
  45.     Bit rate : 1 536 Kbps
  46.     Channel(s) : 2 channels
  47.     Sampling rate : 48.0 KHz
  48.     Bit depth : 16 bits
  49.     Stream size : 44.5 MiB (1%)
  50.     Language : English
  51.     Encoded date : UTC 2015-06-17 07:38:29
  52.     Tagged date : UTC 2015-06-17 07:52:01
  53.   Text #5-608-1
  54.     ID : 5-608-1
  55.     Format : EIA-608
  56.     Muxing mode : Final Cut / CDP
  57.     Codec ID : c708
  58.     Duration : 4mn 2s
  59.     Bit rate mode : Constant
  60.     Stream size : 0.00 Byte (0%)
  61.     Language : English
  62.     Encoded date : UTC 2015-06-17 07:52:21
  63.     Tagged date : UTC 2015-06-17 07:52:21
  64.   Text #5-1
  65.     ID : 5-1
  66.     Format : EIA-708
  67.     Muxing mode : Final Cut / CDP
  68.     Codec ID : c708
  69.     Duration : 4mn 2s
  70.     Bit rate mode : Constant
  71.     Stream size : 0.00 Byte (0%)
  72.     Language : English
  73.     Encoded date : UTC 2015-06-17 07:52:21
  74.     Tagged date : UTC 2015-06-17 07:52:21
  75.   Menu #3
  76.     ID : 3
  77.     Language : English
  78.     Encoded date : UTC 2015-06-17 07:38:29
  79.     Tagged date : UTC 2015-06-17 07:38:29
复制代码



5GB母带


游客,如果您要查看本帖隐藏内容请回复

Rank: 27Rank: 27Rank: 27

帖子
2596
推广
0
资源
0
人气
11
在线时间
3206 小时
注册时间
2008-9-8
发表于 2015-8-18 13:55:58 |显示全部楼层
神一样的档啊,这么巨大啊

使用道具 举报

Rank: 18Rank: 18Rank: 18Rank: 18Rank: 18Rank: 18

帖子
1370
推广
0
资源
0
人气
24
在线时间
1236 小时
注册时间
2011-6-16
发表于 2015-8-18 23:59:07 |显示全部楼层
太棒了啊!!!致敬一下

使用道具 举报

Rank: 18Rank: 18Rank: 18Rank: 18Rank: 18Rank: 18

帖子
1479
推广
0
资源
0
人气
1
在线时间
559 小时
注册时间
2011-9-26
发表于 2015-8-19 20:26:23 |显示全部楼层
THANKS FOR SHARING THIS

使用道具 举报

Rank: 6Rank: 6

帖子
137
推广
0
资源
0
人气
0
在线时间
22 小时
注册时间
2015-3-1
发表于 2015-8-21 17:03:07 |显示全部楼层
这个必须收的 谢谢分享

使用道具 举报

Rank: 30Rank: 30

帖子
22415
推广
222
资源
28
人气
1004
在线时间
3173 小时
注册时间
2008-9-14
发表于 2015-8-21 21:44:47 |显示全部楼层
感谢分享,辛苦了

使用道具 举报

Rank: 25

帖子
4324
推广
7
资源
24
人气
-2
在线时间
1675 小时
注册时间
2010-9-23
发表于 2015-8-24 16:38:25 |显示全部楼层
好热闹~~谢谢LZ

使用道具 举报

Rank: 4Rank: 4Rank: 4Rank: 4

帖子
93
推广
0
资源
0
人气
0
在线时间
27 小时
注册时间
2015-5-14
发表于 2015-8-30 22:07:52 |显示全部楼层
好爽,,,, 谢谢,,!真心感谢

使用道具 举报

Rank: 22Rank: 22Rank: 22Rank: 22Rank: 22Rank: 22

帖子
1740
推广
0
资源
0
人气
0
在线时间
1064 小时
注册时间
2011-6-9
发表于 2015-8-31 17:43:57 |显示全部楼层
不错哦~~

使用道具 举报

Rank: 10Rank: 10

帖子
397
推广
0
资源
0
人气
0
在线时间
18 小时
注册时间
2015-1-18
发表于 2015-9-1 20:38:55 |显示全部楼层
感谢楼主分享资源

使用道具 举报

您需要登录后才可以回帖 登录 | 注册帐号

回顶部